Хатико: Самый верный друг. Книга хатико самый верный друг книга


Хатико самый верный друг | ProShtoKino.rU

Хатико самый верный друг

Хатико самый верный друг

Оригинальное название: Hachi: A Dog’s Tale.
Слоган: «Подлинная история веры, преданности и вечной любви».
Год: 2008.
Страна: США, Великобритания.
Жанр: драма, семейный.
Режиссер: Лассе Халльстрём.
В главных ролях: Ричард Гир, Джоан Аллен, Кэри-Хироюки Тагава, Сара Ремер, Джейсон Александр, Эрик Авари, Давиния МакФэдден, Робби Саблетт, Кевин ДеКосте, Роб Деньян.
Возраст: 0+
Рейтинг:
Описание фильма:В основе сюжета — реальная история, случившаяся в Японии и потрясшая весь мир. Однажды, возвращаясь с работы, профессор колледжа нашел на вокзале симпатичного щенка породы акита-ину. Профессор и Хатико стали верными друзьями. Каждый день пес провожал и встречал Профессора на вокзале. И даже потеря хозяина не остановила пса в его надежде, что друг вернется.

Слоган этого фильма очень точно передает содержание всего фильма.

Это не просто фильм, это история, история о вечно преданной собаке, безумно любящем профессоре.

От такого фильма не ждешь какого-то лихо закрученного сюжета, гениальных спецэффектов, нет, ты просто смотришь этот фильм с замиранием сердца, на несколько часов ты живешь этим фильмом.

Хатико — это не просто собака, это символ. Символ дружбы, любви и преданности. Мне трудно это говорить, но не все люди способны ТАК любить и ТАК дружить. Очень часто в дружбе, любви люди ищут выгоду для себя, а Хатико жил ради своего хозяина.

Безумно трогательная история, заставившая меня плакать на протяжении всего фильма. Плакать от радости, от печали, даже от музыки…

Фортепианная музыка была гениальна, один инструмент и все, как говорится «все просто — гениально» В этом фильме все именно так.

    Знаете ли Вы, что…
  • Фильм основан на реальных событиях.
  • Порода Хатико — акита-ину.
  • Съёмки фильма проходили в университете Род-Айленда (Кингстон).
  • Хатико в разные годы жизни играют три взрослые собаки и три щенка.
  • Хатико умер от филяриатоза сердца, а в его желудке было найдено несколько палочек от якитори.
  • Хатико был воздвигнут памятник, на открытии которого он лично присутствовал. После его смерти, ввиду широкого резонанса, в стране был объявлен день траура. Во время Второй мировой войны памятник был уничтожен — металл памятника пошёл на военные нужды. Но Япония не забыла пса, и после окончания войны, в августе 1948 года, памятник был восстановлен. Сегодня статуя Хатико у станции Сибуя является местом встречи влюблённых, а сам образ пса в Японии стал примером беззаветной любви и верности.
Смотреть онлайн Хатико самый верный друг.

proshtokino.ru

Хатико: Самый верный друг - это... Что такое Хатико: Самый верный друг?

«Хатико: Самый верный друг» (англ. Hachiko: A Dog's Story) — художественный фильм Лассе Халльстрёма, основанный на реальной истории Хатико — японского пса породы акита-ину, который в течение девяти лет каждый день в одно и то же время приходил на вокзал встречать умершего хозяина.

Фильм является ремейком японского фильма 1987 года[1]. Сценарий фильма написал Стивен Линдси. Главные роли в фильме исполняют Ричард Гир, Джоан Аллен и Сара Ремер. Фильм был выпущен 8 августа 2009 года в Японии.

Сюжет

Профессор университета Паркер Уилсон находит на вокзале потерявшегося щенка, отправленного из Японии в Америку. Так как никто за ним не является, Паркеру приходится оставить щенка у себя. За то время, что собака живёт у профессора, между ними возникает крепкая дружба. Паркер очень сильно привязывается к своему новому приятелю. Каждый день Хатико провожает хозяина до вокзала, когда тот отправляется на работу, а вечером приходит к вокзалу, чтобы встретить его. В один из дней профессор скоропостижно умирает на лекции в университете от сердечного приступа. Не дождавшись хозяина, Хатико продолжал приходить на станцию, не пропуская ни дня[2].

Несмотря на то, что пса пытались забрать родственники профессора, он неизменно продолжал возвращаться на станцию. Местные торговцы и железнодорожники подкармливали Хатико, восхищаясь его упорством и преданностью. Вскоре о необычном псе узнают газетчики, и Хатико становится героем прессы. До конца своих дней Хатико ежедневно приходит на станцию к прибытию поезда, и ждёт до самого вечера, что вот-вот его хозяин выйдет из очередного поезда. Он так и не приходит, но Хатико — верный пес — не оставляет своего места. На той станции преданный пёс и нашёл свою смерть.

Создание фильма

Съёмки фильма преимущественно проходили в Вунсокете, Бристоле и Кингстауне (Род-Айленд), а также в Университете Род-Айленда и Японии.

Интересные факты

  • Хатико в разные годы жизни играют три взрослые собаки и три щенка.
  • Сюжет фильма тесно перекликается с советской картиной 1989 года «На привязи у взлётной полосы» (основанной на реальных событиях) о том, как собака 10 лет ждала своего хозяина в аэропорту возле взлетной полосы, где он её оставил.
  • Саундтреком к фильму является композиция «Goodbye», написанная Яном Качмареком
  • Хатико в разные годы жизни играют собаки Чико, Лайла и Форест.
  • Порода Хатико Акита-ину является символом верности и преданности в Японии.
  • Настоящему Хатико в Японии, на станции Сибуя, где он ждал хозяина, поставлен бронзовый памятник. Сегодня статуя Хатико у станции является местом встречи влюблённых, а сам образ пса в Японии стал примером беззаветной любви и верности.
  • В России тоже был установлен памятник Преданности в городе Тольятти (Самарская область)

См. также

Примечания

Ссылки

dikc.academic.ru

Самый верный друг через торрент в хорошем качестве бесплатно 720p от potroks

GeneralUnique ID                                : 238857338617092103685767758276283010600 (0xB3B24005C33832D6B2E5E63CA02B0E28)Complete name                            : N:\Драма\Hatiko.Samyi.Vernyi.Drug.2009.TRIPLE.BDRip.720p.-HELLYWOOD.mkvFormat                                   : MatroskaFormat version                           : Version 4 / Version 2File size                                : 5.37 GiBDuration                                 : 1h 33mnOverall bit rate                         : 8 238 KbpsMovie name                               : Hachi: A Dog's Tale (2009) - HELLYWOODEncoded date                             : UTC 2010-02-22 21:41:31Writing application                      : mkvmerge v5.8.0 ('No Sleep / Pillow') built on Sep 30 2012 10:57:14Writing library                          : libebml v1.3.0 + libmatroska v1.4.0

VideoID                                       : 1Format                                   : AVCFormat/Info                              : Advanced Video CodecFormat profile                           : [email protected] settings, CABAC                   : YesFormat settings, ReFrames                : 8 framesCodec ID                                 : V_MPEG4/ISO/AVCDuration                                 : 1h 33mnBit rate                                 : 6 513 KbpsWidth                                    : 1 280 pixelsHeight                                   : 690 pixelsDisplay aspect ratio                     : 1.855Frame rate mode                          : VariableFrame rate                               : 23.976 fpsColor space                              : YUVChroma subsampling                       : 4:2:0Bit depth                                : 8 bitsScan type                                : ProgressiveBits/(Pixel*Frame)                       : 0.308Stream size                              : 4.13 GiB (77%)Title                                    : potroksWriting library                          : x264 core 128 r2216M 198a7eaEncoding settings                        : cabac=1 / ref=9 / deblock=1:-3:-3 / analyse=0x3:0x133 / me=umh / subme=11 / psy=1 / psy_rd=1.05:0.10 / mixed_ref=1 / me_range=48 / chroma_me=1 / trellis=2 / 8x8dct=1 / cqm=0 / deadzone=21,11 / fast_pskip=0 / chroma_qp_offset=-3 / threads=10 / lookahead_threads=1 / sliced_threads=0 / nr=0 / decimate=1 / interlaced=0 / bluray_compat=0 / constrained_intra=0 / bframes=10 / b_pyramid=1 / b_adapt=2 / b_bias=0 / direct=3 / weightb=1 / open_gop=0 / weightp=2 / keyint=250 / keyint_min=23 / scenecut=40 / intra_refresh=0 / rc_lookahead=40 / rc=2pass / mbtree=0 / bitrate=6513 / ratetol=1.0 / qcomp=0.70 / qpmin=0 / qpmax=69 / qpstep=4 / cplxblur=20.0 / qblur=0.5 / vbv_maxrate=62500 / vbv_bufsize=62500 / nal_hrd=none / ip_ratio=1.40 / pb_ratio=1.30 / aq=1:0.75Language                                 : EnglishDefault                                  : YesForced                                   : No

Audio #1ID                                       : 2Format                                   : AC-3Format/Info                              : Audio Coding 3Mode extension                           : CM (complete main)Codec ID                                 : A_AC3Duration                                 : 1h 33mnBit rate mode                            : ConstantBit rate                                 : 640 KbpsChannel(s)                               : 6 channelsChannel positions                        : Front: L C R, Side: L R, LFESampling rate                            : 48.0 KHzBit depth                                : 16 bitsCompression mode                         : LossyStream size                              : 427 MiB (8%)Title                                    : Dub | DD 5.1 @ 640 kbpsLanguage                                 : RussianDefault                                  : YesForced                                   : No

Audio #2ID                                       : 3Format                                   : AC-3Format/Info                              : Audio Coding 3Mode extension                           : CM (complete main)Codec ID                                 : A_AC3Duration                                 : 1h 33mnBit rate mode                            : ConstantBit rate                                 : 448 KbpsChannel(s)                               : 6 channelsChannel positions                        : Front: L C R, Side: L R, LFESampling rate                            : 48.0 KHzBit depth                                : 16 bitsCompression mode                         : LossyStream size                              : 299 MiB (5%)Title                                    : MVO | DD 5.1 @ 448 kbpsLanguage                                 : UkrainianDefault                                  : NoForced                                   : No

Audio #3ID                                       : 4Format                                   : AC-3Format/Info                              : Audio Coding 3Mode extension                           : CM (complete main)Codec ID                                 : A_AC3Duration                                 : 1h 33mnBit rate mode                            : ConstantBit rate                                 : 640 KbpsChannel(s)                               : 6 channelsChannel positions                        : Front: L C R, Side: L R, LFESampling rate                            : 48.0 KHzBit depth                                : 16 bitsCompression mode                         : LossyStream size                              : 427 MiB (8%)Title                                    : Original | DD 5.1 @ 640 kbpsLanguage                                 : EnglishDefault                                  : NoForced                                   : No

Text #1ID                                       : 5Format                                   : UTF-8Codec ID                                 : S_TEXT/UTF8Codec ID/Info                            : UTF-8 Plain TextLanguage                                 : RussianDefault                                  : NoForced                                   : No

Text #2ID                                       : 6Format                                   : UTF-8Codec ID                                 : S_TEXT/UTF8Codec ID/Info                            : UTF-8 Plain TextTitle                                    : ForcedLanguage                                 : EnglishDefault                                  : NoForced                                   : No

Text #3ID                                       : 7Format                                   : UTF-8Codec ID                                 : S_TEXT/UTF8Codec ID/Info                            : UTF-8 Plain TextTitle                                    : FullLanguage                                 : EnglishDefault                                  : NoForced                                   : No

Text #4ID                                       : 8Format                                   : UTF-8Codec ID                                 : S_TEXT/UTF8Codec ID/Info                            : UTF-8 Plain TextTitle                                    : SDHLanguage                                 : EnglishDefault                                  : NoForced                                   : No

Menu00:00:00.000                             : en:(01)00:00:00:00000:06:15.208                             : en:(02)00:06:15:20800:11:54.046                             : en:(03)00:11:54:04600:18:37.407                             : en:(04)00:18:37:40700:23:39.041                             : en:(05)00:23:39:04100:28:31.292                             : en:(06)00:28:31:29200:31:39.564                             : en:(07)00:31:39:56400:35:33.089                             : en:(08)00:35:33:08900:40:38.518                             : en:(09)00:40:38:51800:47:16.708                             : en:(10)00:47:16:70800:54:15.794                             : en:(11)00:54:15:79400:58:41.518                             : en:(12)00:58:41:51801:06:06.754                             : en:(13)01:06:06:75401:12:45.778                             : en:(14)01:12:45:77801:18:41.716                             : en:(15)01:18:41:71601:23:22.706                             : en:(16)01:23:22:706

piratbit.org